Filmy / Movies Działa z linkami do filmów pełnometrażowych, seriali, bajek, anime, filmów dokumentalnych. Filmy w formatach RMVB, AVI, DVD, HD, 3D


 
Narzędzia wątku
Stare 05-05-2009, 15:59   #1
czarnyCS
Junior Member
 
Awatar czarnyCS
 
Dołączył: May 2009
Posty: 6
Otrzymał podziękowań: 0
Podziękował 0 razy w 0 postach
Domyślnie Gwiezdne wojny - Epizod IV: Nowa nadzieja / Star Wars IV: A New Hope (1977)

Gwiezdne Wojny - Epizod 4: Nowa nadzieja DVDrip Lektor PL

Gwiezdne wojny - Epizod IV: Nowa nadzieja / Star Wars IV: A New Hope (1977)

produkcja: USA
gatunek: Przygodowy,Sci-Fi
reżyseria George Lucas
scenariusz George Lucas
zdjęcia Gilbert Taylor
muzyka John Williams
od lat: 12
czas trwania: 121


Kod:





Kod:
Treść widoczna tylko dla członków BlueWarez.pl. Zaloguj się lub załóż darmowe konto aby uzyskać dostęp bez limitów.





Miłego oglądania życzę
czarnyCS jest nieaktywny  
Stare 18-07-2011, 20:41   #2
Demonxx
Uplinker
 
Awatar Demonxx
 
Dołączył: Jul 2010
Posty: 2,290
Otrzymał podziękowań: 0
Podziękował 0 razy w 0 postach
Domyślnie RE: Star Wars All Parts / Gwiezdne Wojny Nowa nadzieja

Gwiezdne wojny - Epizod 4: Nowa nadzieja / Star Wars IV: A New Hope (1977) DVDRip 480p AC3 XVID-DX Lektor PL

General
 
Format : AVI
Format/Info : Audio Video Interleave
Format profile : OpenDML
File size : 1.25 GiB
Duration : 1h 59mn
Overall bit rate : 1 491 Kbps
Movie name : Gwiezdne Wojny Nowa Nadzieja
Writing application : Lavf52.78.4
Original source form/Name : SW.IV
Video #0
ID : 0
Format : MPEG-4 Visual
Format profile : [email protected]
Format settings, BVOP : Yes
Format settings, QPel : No
Format settings, GMC : No warppoints
Format settings, Matrix : Default (H.263)
Muxing mode : Packed bitstream
Codec ID : DX50
Codec ID/Hint : DivX 5
Duration : 1h 59mn
Bit rate : 1 094 Kbps
Width : 720 pixels
Height : 304 pixels
Display aspect ratio : 2.35:1
Frame rate : 25.000 fps
Resolution : 24 bits
Colorimetry : 4:2:0
Scan type : Progressive
Bits/(Pixel*Frame) : 0.200
Stream size : 936 MiB (73%)
Writing library : XviD 1.2.1 (UTC 2008-12-04)
Audio #1
ID : 1
Format : AC-3
Format/Info : Audio Coding 3
Codec ID : 2000
Duration : 1h 59mn
Bit rate mode : Constant
Bit rate : 384 Kbps
Channel(s) : 2 channels
Channel positions : L R
Sampling rate : 48.0 KHz
Stream size : 328 MiB (26%)
Alignment : Aligned on interleaves
Interleave, duration : 32 ms (0.80 video frame)
Interleave, preload duration : 32 ms


Gwiezdne wojny - Epizod IV: Nowa nadzieja / Star Wars IV: A New Hope (1977)Gwiezdne wojny - Epizod IV: Nowa nadzieja / Star Wars IV: A New Hope (1977)






Kod:
Treść widoczna tylko dla członków BlueWarez.pl. Zaloguj się lub załóż darmowe konto aby uzyskać dostęp bez limitów.





Demonxx jest nieaktywny  
Stare 27-08-2011, 18:31   #3
kapii
Senior Member
 
Awatar kapii
 
Dołączył: Dec 2009
Posty: 975
Otrzymał podziękowań: 0
Thanked 1 Time in 1 Post
Domyślnie RE: Gwiezdne wojny - Epizod 4: Nowa nadzieja / Star Wars IV: A New Hope (1977)

Gwiezdne Wojny: Część 4 - Nowa Nadzieja (1977) DVDRip AVI - Lektor PL

Gwiezdne wojny - Epizod IV: Nowa nadzieja / Star Wars IV: A New Hope (1977)

Rycerze Jedi zostali wytępieni, a Imperium żelazną ręka sprawuje rządy nad całą galaktyką. Mała grupa Rebeliantów podejmuje walkę kradnąc tajne plany najpotężniejszej broni Imperium - tzw. Gwiazdy Śmierci. Najbardziej zaufany sługa Imperatora - Darth Vader musi odzyskać plany i odnaleźć ukrytą bazę buntowników. Księżniczka Leia - wzięta do niewoli przywódczyni Rebeliantów, wysyła sygnał z wezwaniem pomocy, który zostaje przechwycony przez zwykłego chłopaka z farmy - Luke'a Skywalkera. Wychodząc naprzeciw swemu przeznaczeniu, Luke podejmuje wyzwanie i rusza na ratunek Księżniczce chcąc pomóc Rebeliantom w obaleniu Imperium. W misji pomagają mu niezwykli sojusznicy - mądry Obi-Wan Kenobi, nieco arogancki gwiezdny awanturnik Han Solo i jego lojalny towarzysz Chewbaccą a także dwa droidy R2-D2 i C-3PO.







Kod:
Treść widoczna tylko dla członków BlueWarez.pl. Zaloguj się lub załóż darmowe konto aby uzyskać dostęp bez limitów.






Download Link's // No Pass




Kod:
Treść widoczna tylko dla członków BlueWarez.pl. Zaloguj się lub załóż darmowe konto aby uzyskać dostęp bez limitów.






Download Link's // No Pass




Kod:
Treść widoczna tylko dla członków BlueWarez.pl. Zaloguj się lub załóż darmowe konto aby uzyskać dostęp bez limitów.









Kod:
Treść widoczna tylko dla członków BlueWarez.pl. Zaloguj się lub załóż darmowe konto aby uzyskać dostęp bez limitów.









Kod:
Treść widoczna tylko dla członków BlueWarez.pl. Zaloguj się lub załóż darmowe konto aby uzyskać dostęp bez limitów.




kapii jest nieaktywny  
Stare 26-09-2011, 20:24   #4
Demonxx
Uplinker
 
Awatar Demonxx
 
Dołączył: Jul 2010
Posty: 2,290
Otrzymał podziękowań: 0
Podziękował 0 razy w 0 postach
Domyślnie RE: Gwiezdne wojny - Epizod IV: Nowa nadzieja / Star Wars IV: A New Hope (1977)

Gwiezdne wojny - Epizod IV: Nowa nadzieja / Star Wars IV: A New Hope (1977) BluRay m-1080p AC3 x264-WaLTeR Dubbing PL

General
 
Format : Matroska
File size : 3.88 GiB
Duration : 2h 4mn
Overall bit rate : 4 449 Kbps
Encoded date : UTC 2011-09-26 05:07:20
Video #1
ID : 1
Format : AVC
Format/Info : Advanced Video Codec
Format profile : [email protected]
Format settings, CABAC : Yes
Format settings, ReFrames : 6 frames
Muxing mode : Container [email protected]
Codec ID : V_MPEG4/ISO/AVC
Duration : 2h 4mn
Bit rate : 3 912 Kbps
Nominal bit rate : 4 000 Kbps
Width : 1 920 pixels
Height : 816 pixels
Display aspect ratio : 2.35:1
Frame rate : 23.976 fps
Resolution : 24 bits
Colorimetry : 4:2:0
Scan type : Progressive
Bits/(Pixel*Frame) : 0.104
Stream size : 3.41 GiB (88%)
Title : Star Wars Ep. 04 - New Hope
Writing library : x264 core 105 r1732 2b04482
Language : English
Audio #2
ID : 2
Format : AC-3
Format/Info : Audio Coding 3
Codec ID : A_AC3
Duration : 2h 4mn
Bit rate mode : Constant
Bit rate : 448 Kbps
Channel(s) : 6 channels
Channel positions : Front: L C R, Surround: L R, LFE
Sampling rate : 48.0 KHz
Stream size : 400 MiB (10%)
Title : Polish AC3
Language : Polish


Gwiezdne wojny - Epizod IV: Nowa nadzieja / Star Wars IV: A New Hope (1977)






Kod:
Treść widoczna tylko dla członków BlueWarez.pl. Zaloguj się lub załóż darmowe konto aby uzyskać dostęp bez limitów.





Demonxx jest nieaktywny  
Stare 01-10-2011, 08:30   #5
Demonxx
Uplinker
 
Awatar Demonxx
 
Dołączył: Jul 2010
Posty: 2,290
Otrzymał podziękowań: 0
Podziękował 0 razy w 0 postach
Domyślnie RE: Gwiezdne wojny - Epizod IV: Nowa nadzieja / Star Wars IV: A New Hope (1977)

Gwiezdne wojny - Epizod IV: Nowa nadzieja / Star Wars IV: A New Hope (1977) BluRay 1080p DTS/AC3(ENG/PL) X264-DX Dubbing-Lektor PL/Napisy PL

General
 
Format : Matroska
File size : 7.55 GiB
Duration : 2h 4mn
Overall bit rate : 8 659 Kbps
Encoded date : UTC 2011-10-01 05:18:54
Video #1
ID : 1
Format : AVC
Format/Info : Advanced Video Codec
Format profile : [email protected]
Format settings, CABAC : Yes
Format settings, ReFrames : 4 frames
Muxing mode : Container [email protected]
Codec ID : V_MPEG4/ISO/AVC
Duration : 2h 4mn
Bit rate : 5 889 Kbps
Nominal bit rate : 6 081 Kbps
Width : 1 920 pixels
Height : 816 pixels
Display aspect ratio : 2.35:1
Frame rate : 23.976 fps
Resolution : 24 bits
Colorimetry : 4:2:0
Scan type : Progressive
Bits/(Pixel*Frame) : 0.157
Stream size : 5.13 GiB (68%)
Writing library : x264 core 112
Language : English
Audio #2
ID : 2
Format : DTS
Format/Info : Digital Theater Systems
Format profile : ES
Codec ID : A_DTS
Duration : 2h 4mn
Bit rate mode : Constant
Bit rate : 1 510 Kbps
Channel(s) : 7 channels
Channel positions : Front: L C R, Rear: L C R, LFE
Sampling rate : 48.0 KHz
Resolution : 24 bits
Video delay : 10ms
Stream size : 1.32 GiB (17%)
Title : English DTS
Language : English
Audio #3
ID : 3
Format : AC-3
Format/Info : Audio Coding 3
Codec ID : A_AC3
Duration : 2h 4mn
Bit rate mode : Constant
Bit rate : 640 Kbps
Channel(s) : 6 channels
Channel positions : Front: L C R, Surround: L R, LFE
Sampling rate : 48.0 KHz
Stream size : 571 MiB (7%)
Title : Polish Lector AC3 5.1
Language : Polish
Audio #4
ID : 4
Format : AC-3
Format/Info : Audio Coding 3
Codec ID : A_AC3
Duration : 2h 4mn
Bit rate mode : Constant
Bit rate : 448 Kbps
Channel(s) : 6 channels
Channel positions : Front: L C R, Surround: L R, LFE
Sampling rate : 48.0 KHz
Stream size : 400 MiB (5%)
Title : Polish Dubbing AC3 5.1
Language : Polish
Text #5
ID : 5
Format : SSA
Codec ID : S_TEXT/SSA
Codec ID/Info : Sub Station Alpha
Title : PL TXT
Language : Polish


Gwiezdne wojny - Epizod IV: Nowa nadzieja / Star Wars IV: A New Hope (1977)Gwiezdne wojny - Epizod IV: Nowa nadzieja / Star Wars IV: A New Hope (1977)
Gwiezdne wojny - Epizod IV: Nowa nadzieja / Star Wars IV: A New Hope (1977)Gwiezdne wojny - Epizod IV: Nowa nadzieja / Star Wars IV: A New Hope (1977)






Kod:
Treść widoczna tylko dla członków BlueWarez.pl. Zaloguj się lub załóż darmowe konto aby uzyskać dostęp bez limitów.






Hasło / Password : SWEpis4Dem
Demonxx jest nieaktywny  
Stare 05-10-2011, 18:04   #6
Demonxx
Uplinker
 
Awatar Demonxx
 
Dołączył: Jul 2010
Posty: 2,290
Otrzymał podziękowań: 0
Podziękował 0 razy w 0 postach
Domyślnie RE: Gwiezdne wojny - Epizod IV: Nowa nadzieja / Star Wars IV: A New Hope (1977)

Gwiezdne wojny - Epizod IV: Nowa nadzieja / Star Wars IV: A New Hope (1977) BluRay m-1080p AC3(ENG/PL) X264-DX Dubbing-Lektor-Napisy PL

General
 
Format : Matroska
File size : 3.87 GiB
Duration : 2h 4mn
Overall bit rate : 4 440 Kbps
Encoded date : UTC 2011-10-05 11:12:03
Video #1
ID : 1
Format : AVC
Format/Info : Advanced Video Codec
Format profile : [email protected]
Format settings, CABAC : Yes
Format settings, ReFrames : 4 frames
Muxing mode : Container [email protected]
Codec ID : V_MPEG4/ISO/AVC
Duration : 2h 4mn
Bit rate : 2 815 Kbps
Nominal bit rate : 2 911 Kbps
Width : 1 920 pixels
Height : 816 pixels
Display aspect ratio : 2.35:1
Frame rate : 23.976 fps
Resolution : 24 bits
Colorimetry : 4:2:0
Scan type : Progressive
Bits/(Pixel*Frame) : 0.075
Stream size : 2.45 GiB (63%)
Writing library : x264 core 112
Language : English
Audio #2
ID : 2
Format : AC-3
Format/Info : Audio Coding 3
Codec ID : A_AC3
Duration : 2h 4mn
Bit rate mode : Constant
Bit rate : 448 Kbps
Channel(s) : 6 channels
Channel positions : Front: L C R, Surround: L R, LFE
Sampling rate : 48.0 KHz
Stream size : 400 MiB (10%)
Title : English AC3 5.1
Language : English
Audio #3
ID : 3
Format : AC-3
Format/Info : Audio Coding 3
Codec ID : A_AC3
Duration : 2h 4mn
Bit rate mode : Constant
Bit rate : 640 Kbps
Channel(s) : 6 channels
Channel positions : Front: L C R, Surround: L R, LFE
Sampling rate : 48.0 KHz
Stream size : 571 MiB (14%)
Title : Polish Lector AC3 5.1
Language : Polish
Audio #4
ID : 4
Format : AC-3
Format/Info : Audio Coding 3
Codec ID : A_AC3
Duration : 2h 4mn
Bit rate mode : Constant
Bit rate : 448 Kbps
Channel(s) : 6 channels
Channel positions : Front: L C R, Surround: L R, LFE
Sampling rate : 48.0 KHz
Stream size : 400 MiB (10%)
Title : Polish Dubbing AC3 5.1
Language : Polish
Text #5
ID : 5
Format : SSA
Codec ID : S_TEXT/SSA
Codec ID/Info : Sub Station Alpha
Title : PL TXT
Language : Polish


Gwiezdne wojny - Epizod IV: Nowa nadzieja / Star Wars IV: A New Hope (1977)Gwiezdne wojny - Epizod IV: Nowa nadzieja / Star Wars IV: A New Hope (1977)






Kod:
Treść widoczna tylko dla członków BlueWarez.pl. Zaloguj się lub załóż darmowe konto aby uzyskać dostęp bez limitów.





Demonxx jest nieaktywny  
Stare 06-06-2012, 13:33   #7
Trytonik
Senior Member
 
Awatar Trytonik
 
Dołączył: Jun 2010
Posty: 1,184
Otrzymał podziękowań: 0
Podziękował 2 razy w 2 postach
Domyślnie Gwiezdne Wojny: Część IV - Nowa Nadzieja (1977)

Gwiezdne Wojny: Część IV - Nowa Nadzieja / Star Wars: Episode IV - A New Hope (1977) PL.BRRip.XviD-NINE / Lektor PL

 
Gwiezdne wojny - Epizod IV: Nowa nadzieja / Star Wars IV: A New Hope (1977)


Cytat:
VIDEO: XviD, 720x304, 1365kbps
AUDIO: MP3, 48KHz, 192kbps
RUNTIME: 02:04:47
FILE SIZE: 1,36GB




Kod:
Treść widoczna tylko dla członków BlueWarez.pl. Zaloguj się lub załóż darmowe konto aby uzyskać dostęp bez limitów.









Kod:
Treść widoczna tylko dla członków BlueWarez.pl. Zaloguj się lub załóż darmowe konto aby uzyskać dostęp bez limitów.









Kod:
Treść widoczna tylko dla członków BlueWarez.pl. Zaloguj się lub załóż darmowe konto aby uzyskać dostęp bez limitów.





Ostatnio edytowane przez Trytonik ; 12-04-2019 o 16:34 Powód: aktualizacja
Trytonik jest nieaktywny  
Stare 25-06-2013, 09:49   #8
92michal92
Uplinker
 
Awatar 92michal92
 
Dołączył: Oct 2010
Posty: 3,433
Otrzymał podziękowań: 0
Podziękował 6 razy w 6 postach
Domyślnie

Gwiezdne Wojny - Epizod 4: Nowa Nadzieja / Star Wars - Episode IV: A New Hope (1977) | DVDRIP | XviD | LEKTOR PL

 
Gwiezdne wojny - Epizod IV: Nowa nadzieja / Star Wars IV: A New Hope (1977)


### DANE TECHNICZNE: ###





Kod:
Treść widoczna tylko dla członków BlueWarez.pl. Zaloguj się lub załóż darmowe konto aby uzyskać dostęp bez limitów.





### OPIS UPLOADU: ###




Kod:
Treść widoczna tylko dla członków BlueWarez.pl. Zaloguj się lub załóż darmowe konto aby uzyskać dostęp bez limitów.





### DOWNLOAD: ###





Kod:
Treść widoczna tylko dla członków BlueWarez.pl. Zaloguj się lub załóż darmowe konto aby uzyskać dostęp bez limitów.









Kod:
Treść widoczna tylko dla członków BlueWarez.pl. Zaloguj się lub załóż darmowe konto aby uzyskać dostęp bez limitów.





### HASŁO: ###




Kod:
Treść widoczna tylko dla członków BlueWarez.pl. Zaloguj się lub załóż darmowe konto aby uzyskać dostęp bez limitów.




92michal92 jest nieaktywny  

Tagi do tematu: Gwiezdne wojny - Epizod IV: Nowa nadzieja / Star Wars IV: A New Hope (1977)
epizod, gwiezdne, hope, nadzieja, nowa, star, wars, wojny

Podobne wątki do: Gwiezdne wojny - Epizod IV: Nowa nadzieja / Star Wars IV: A New Hope (1977)
Wątek Autor wątku Forum Odpowiedzi Ostatni post / autor
Gwiezdne Wojny: Część V - Imperium kontratakuje / Star Wars: Episode V - The.. (1980) czarnyCS Filmy / Movies 6 25-06-2013 09:50
Gwiezdne Wojny: Wojny Klonów / Star Wars: The Clone Wars (2008) Trytonik Anime/Bajki/Animacja 1 13-01-2012 15:52
Gwiezdne Wojny: Część II - Atak klonów / Star Wars: Episode II - Attack of... (2002) czarnyCS Filmy / Movies 7 07-10-2011 18:47
Gwiezdne Wojny: Wojny Klonów / Star Wars: The Clone Wars [Sezon 3] (2010) vqpuay Seriale 3 04-12-2010 16:25
Gwiezdne wojny. Moc jest z tobą / Star Wars: Feel the Force (2005) Trytonik Filmy / Movies 0 09-09-2010 12:56

Sprawdź także:

Użytkownicy znaleźli temat szukając:
Gwiezdne wojny - Epizod 4: Nowa nadzieja / Star Wars IV: A New Hope (1977) DVDRip 480p AC3 XVID-DX Lektor PL, Gwiezdne wojny - Epizod IV: Nowa nadzieja / Star Wars IV: A New Hope (1977) BluRay 1080p DTS/AC3(ENG/PL) X264-DX Dubbing-Lektor PL/Napisy PL

Narzędzia wątku



O forum BlueWarez
Powered by vBulletin®
Copyright © BlueWarez.pl 2008 - 2018
Czasy w strefie GMT +1. Teraz jest 21:17.
Zawarte na forum linki (download) znajdują się na serwisach: Rapidshare, Turbobit, Freakshare, Chomikuj, Bitshare, Uploading, Letitbit, Uploaded, Hotfile, Netload, Mediafire, 4shared, Zshare, FilePost, Depositfiles, Filefactory, Rapidgator, Hellshare, Hitfile, Extabit, Crocko, Ifile, ShareFlare, BayFiles, Jumbofiles, Vip-File, Share-Online, Uploadfloor, Oron, Fiberupload, Filevelocity, Filesonic, Megaupload, Megavideo, VideoBB, Putlocker, Ifilez, Fastshare. Znajdziesz tutaj napisy do seriali, odcinki seriali, soundtracki, gry, erotykę, aplikacje, java, gazety, komiksy, czasopisma, filmy HD, rmvb, avi, 3D oraz wiele innych rzeczy. Nie musisz już odwiedzać serwisów takich jak, peb, ajo, elitewarez, filestube, darkwarez, precyl - teraz wszystko jest w jednym miejscu. BlueWarez.pl to najlepsze forum wielotematyczne dla młodzieży. Napisy pl do seriali i seriale, spolszczenia do gier, cracki, seriale do gier, poradniki, muzyka z filmów i reklam, soundtrack download, pobieraj serialowe hity rmvb, ściągaj odcinki z filestube, całe sezony, korzystaj z plików torrent. Źródła download: seriesgringas, megaupload, odsiebie, chomikuj, torrent, filestube, p2m, p2p