Filmy / Movies Działa z linkami do filmów pełnometrażowych, seriali, bajek, anime, filmów dokumentalnych. Filmy w formatach RMVB, AVI, DVD, HD, 3D


 
Narzędzia wątku
Stare 31-03-2011, 17:47   #1
Demonxx
Uplinker
 
Awatar Demonxx
 
Dołączył: Jul 2010
Posty: 2,290
Otrzymał podziękowań: 0
Podziękował 0 razy w 0 postach
Domyślnie Elizabeth: Złoty wiek / Elizabeth: The Golden Age (2007)

Elizabeth: Złoty wiek / Elizabeth: The Golden Age (2007) BluRay 1080p DualAudio x264-Ripper-DX ENG/PL

Elizabeth: Złoty wiek / Elizabeth: The Golden Age (2007)

reżyseria: Shekhar Kapur
scenariusz: William Nicholson, Michael Hirst
premiera: 11 stycznia 2008 (Polska) 9 września 2007 (Świat)
produkcja: Francja, Niemcy, Wielka Brytania
gatunek: Biograficzny, Dramat historyczny

Shekhar Kapur na historycznym tle epoki maluje porywający obraz dworskiej etykiety, panujących na dworze angielskim stosunków, intryg oraz kwitnących romansów. Jest rok 1585. Anglią od prawie trzech dekad rządzi Królowa Elżbieta I /Cate Blanchett/. Rządy nie są łatwe, bowiem cały czas pojawiają się zakusy na pozbawienie królowej tronu, a sama Elżbieta żyje w poczuciu niepewności i widma zdrady ze strony rodziny. Na kontynencie rozprzestrzeniają się destrukcyjne wpływy fundamentalistycznego katolicyzmu, którego twarzą jest hiszpański król Filip II /Jordi Molla/. Wspierany przez instytucje kościelne w Rzymie, wzmocniony ramieniem Inkwizycji, Filip i jego dominująca na morzu armia ? armada, zagrażają dworowi Anglii i samej królowej. Mroczny i niezwykle bogobojny król gotów jest na wielkie poświęcenia, aby tylko pozbawić tonu protestancką heretyczkę i przywrócić Anglię kościołowi rzymsko-katolickiemu. Elżbieta nie zamierza tak łatwo złożyć broni i z właściwą sobie energią przygotowuje kraj do odparcia hiszpańskiego ataku. Jednocześnie jej uwagę zaprząta Raleigh /Clive Owen/, do którego, pomimo jego statusu człowieka z ludu, ma ogromną słabość. Dla niej to uczucie wydaje się jednak zakazane ? sama zaprzysięgła swoje ciało i duszę poświęcić jedynie Anglii.

General
 
Format : Matroska
File size : 27.4 GiB
Duration : 1h 54mn
Overall bit rate : 34.2 Mbps
Encoded date : UTC 2011-03-27 21:54:03
Writing application : mkvmerge v2.9.8 ('C'est le bon') built on Aug 13 2009 12:49:06
Writing library : libebml v0.7.7 + libmatroska v0.8.1
Video #1
ID : 1
Format : VC-1
Format profile : [email protected]
Codec ID : WVC1
Codec ID/Hint : Microsoft
Duration : 1h 54mn
Width : 1 920 pixels
Height : 1 080 pixels
Display aspect ratio : 16:9
Frame rate : 23.976 fps
Resolution : 24 bits
Colorimetry : 4:2:0
Scan type : Progressive
Title : Elizabeth Złoty wiek
Language : English
Audio #2
ID : 2
Format : DTS
Format/Info : Digital Theater Systems
Format profile : MA
Codec ID : A_DTS
Duration : 1h 54mn
Bit rate mode : Variable
Channel(s) : 6 channels
Channel positions : Front: L C R, Surround: L R, LFE
Sampling rate : 48.0 KHz
Resolution : 24 bits
Title : ENG DTS - HD
Language : English
Audio #3
ID : 3
Format : AC-3
Format/Info : Audio Coding 3
Codec ID : A_AC3
Duration : 1h 54mn
Bit rate mode : Constant
Bit rate : 384 Kbps
Channel(s) : 6 channels
Channel positions : Front: L C R, Surround: L R, LFE
Sampling rate : 48.0 KHz
Stream size : 315 MiB (1%)
Title : PL AC3
Language : Polish







Kod:
Treść widoczna tylko dla członków BlueWarez.pl. Zaloguj się lub załóż darmowe konto aby uzyskać dostęp bez limitów.





Hasło : Demonxx
Demonxx jest nieaktywny  
Stare 13-04-2011, 19:34   #2
Demonxx
Uplinker
 
Awatar Demonxx
 
Dołączył: Jul 2010
Posty: 2,290
Otrzymał podziękowań: 0
Podziękował 0 razy w 0 postach
Domyślnie RE: Elizabeth: Złoty wiek / Elizabeth: The Golden Age (2007)

Elizabeth: Złoty wiek / Elizabeth: The Golden Age (2007) BluRay m-720p AC3 x264-Ripper-DX Lektor PL

General
 
Format : Matroska
File size : 2.09 GiB
Duration : 1h 54mn
Overall bit rate : 2 609 Kbps
Writing application : HandBrake 0.9.5
Writing library : libmkv 0.6.4.1
Video #1
ID : 1
Format : AVC
Format/Info : Advanced Video Codec
Format profile : [email protected]
Format settings, CABAC : Yes
Format settings, ReFrames : 4 frames
Muxing mode : Container [email protected]
Codec ID : V_MPEG4/ISO/AVC
Duration : 1h 54mn
Bit rate : 2 109 Kbps
Nominal bit rate : 2 166 Kbps
Width : 1 280 pixels
Height : 688 pixels
Display aspect ratio : 1.860
Frame rate : 23.976 fps
Resolution : 24 bits
Colorimetry : 4:2:0
Scan type : Progressive
Bits/(Pixel*Frame) : 0.100
Stream size : 1.69 GiB (81%)
Writing library : x264 core 112
Audio #2
ID : 2
Format : AC-3
Format/Info : Audio Coding 3
Codec ID : A_AC3
Duration : 1h 54mn
Bit rate mode : Constant
Bit rate : 448 Kbps
Channel(s) : 6 channels
Channel positions : Front: L C R, Surround: L R, LFE
Sampling rate : 48.0 KHz
Stream size : 368 MiB (17%)
Langue : Polish


Screen 1
Screen 2
Screen 3






Kod:
Treść widoczna tylko dla członków BlueWarez.pl. Zaloguj się lub załóż darmowe konto aby uzyskać dostęp bez limitów.





Demonxx jest nieaktywny  
Stare 09-01-2012, 21:54   #3
Demonxx
Uplinker
 
Awatar Demonxx
 
Dołączył: Jul 2010
Posty: 2,290
Otrzymał podziękowań: 0
Podziękował 0 razy w 0 postach
Domyślnie RE: Elizabeth: Złoty wiek / Elizabeth: The Golden Age (2007)

Elizabeth: Złoty wiek / Elizabeth: The Golden Age (2007) BRRip 480p AC3 XVID-DX Lektor PL

General

Source : Elizabeth.The.Golden.Age.2007.PLBluRay.1080p.DualA udio.x264-Ripper-DX





Kod:
Treść widoczna tylko dla członków BlueWarez.pl. Zaloguj się lub załóż darmowe konto aby uzyskać dostęp bez limitów.





Elizabeth: Złoty wiek / Elizabeth: The Golden Age (2007)Elizabeth: Złoty wiek / Elizabeth: The Golden Age (2007)





Kod:
Treść widoczna tylko dla członków BlueWarez.pl. Zaloguj się lub załóż darmowe konto aby uzyskać dostęp bez limitów.











Kod:
Treść widoczna tylko dla członków BlueWarez.pl. Zaloguj się lub załóż darmowe konto aby uzyskać dostęp bez limitów.






Hasło : DX
Demonxx jest nieaktywny  
Stare 10-01-2012, 07:07   #4
Demonxx
Uplinker
 
Awatar Demonxx
 
Dołączył: Jul 2010
Posty: 2,290
Otrzymał podziękowań: 0
Podziękował 0 razy w 0 postach
Domyślnie RE: Elizabeth: Złoty wiek / Elizabeth: The Golden Age (2007)

Elizabeth: Złoty wiek / Elizabeth: The Golden Age (2007) BRRip 480p XVID-DX Wersja RMVB Lektor PL

General




Kod:
Treść widoczna tylko dla członków BlueWarez.pl. Zaloguj się lub załóż darmowe konto aby uzyskać dostęp bez limitów.










Kod:
Treść widoczna tylko dla członków BlueWarez.pl. Zaloguj się lub załóż darmowe konto aby uzyskać dostęp bez limitów.





Demonxx jest nieaktywny  

Tagi do tematu: Elizabeth: Złoty wiek / Elizabeth: The Golden Age (2007)
2007, age, elizabeth, golden, wiek, złoty

Podobne wątki do: Elizabeth: Złoty wiek / Elizabeth: The Golden Age (2007)
Wątek Autor wątku Forum Odpowiedzi Ostatni post / autor
Złoty Kompas / The Golden Compass (2007) graju Filmy / Movies 1 03-01-2012 23:55
Złoty Kompas / The Golden Compass (2007)LEKTOR PL graju Online 0 29-04-2010 07:40

Sprawdź także:

Użytkownicy znaleźli temat szukając:
Film: Elizabeth: Złoty wiek / Elizabeth: The Golden Age (2007) Lektor PL dowoland

Narzędzia wątku



O forum BlueWarez
Powered by vBulletin®
Copyright © BlueWarez.pl 2008 - 2018
Czasy w strefie GMT +1. Teraz jest 05:45.
Zawarte na forum linki (download) znajdują się na serwisach: Rapidshare, Turbobit, Freakshare, Chomikuj, Bitshare, Uploading, Letitbit, Uploaded, Hotfile, Netload, Mediafire, 4shared, Zshare, FilePost, Depositfiles, Filefactory, Rapidgator, Hellshare, Hitfile, Extabit, Crocko, Ifile, ShareFlare, BayFiles, Jumbofiles, Vip-File, Share-Online, Uploadfloor, Oron, Fiberupload, Filevelocity, Filesonic, Megaupload, Megavideo, VideoBB, Putlocker, Ifilez, Fastshare. Znajdziesz tutaj napisy do seriali, odcinki seriali, soundtracki, gry, erotykę, aplikacje, java, gazety, komiksy, czasopisma, filmy HD, rmvb, avi, 3D oraz wiele innych rzeczy. Nie musisz już odwiedzać serwisów takich jak, peb, ajo, elitewarez, filestube, darkwarez, precyl - teraz wszystko jest w jednym miejscu. BlueWarez.pl to najlepsze forum wielotematyczne dla młodzieży. Napisy pl do seriali i seriale, spolszczenia do gier, cracki, seriale do gier, poradniki, muzyka z filmów i reklam, soundtrack download, pobieraj serialowe hity rmvb, ściągaj odcinki z filestube, całe sezony, korzystaj z plików torrent. Źródła download: seriesgringas, megaupload, odsiebie, chomikuj, torrent, filestube, p2m, p2p